  0
SECTION
  2
HEADER
  9
$ACADVER
  1
AC1014
  9
$ACADMAINTVER
 70
     9
  9
$DWGCODEPAGE
  3
ANSI_1252
  9
$INSBASE
 10
0.0
 20
0.0
 30
0.0
  9
$EXTMIN
 10
4.603218635395081
 20
3.773906783807141
 30
0.0
  9
$EXTMAX
 10
8.11220398900426
 20
7.831509292160454
 30
0.0
  9
$LIMMIN
 10
0.0
 20
0.0
  9
$LIMMAX
 10
12.0
 20
9.0
  9
$ORTHOMODE
 70
     0
  9
$REGENMODE
 70
     1
  9
$FILLMODE
 70
     1
  9
$QTEXTMODE
 70
     0
  9
$MIRRTEXT
 70
     1
  9
$DRAGMODE
 70
     2
  9
$LTSCALE
 40
1.0
  9
$OSMODE
 70
     0
  9
$ATTMODE
 70
     1
  9
$TEXTSIZE
 40
0.2
  9
$TRACEWID
 40
0.05
  9
$TEXTSTYLE
  7
STANDARD
  9
$CLAYER
  8
0
  9
$CELTYPE
  6
BYLAYER
  9
$CECOLOR
 62
   256
  9
$CELTSCALE
 40
1.0
  9
$DELOBJ
 70
     1
  9
$DISPSILH
 70
     0
  9
$DIMSCALE
 40
1.0
  9
$DIMASZ
 40
0.18
  9
$DIMEXO
 40
0.0625
  9
$DIMDLI
 40
0.38
  9
$DIMRND
 40
0.0
  9
$DIMDLE
 40
0.0
  9
$DIMEXE
 40
0.18
  9
$DIMTP
 40
0.0
  9
$DIMTM
 40
0.0
  9
$DIMTXT
 40
0.18
  9
$DIMCEN
 40
0.09
  9
$DIMTSZ
 40
0.0
  9
$DIMTOL
 70
     0
  9
$DIMLIM
 70
     0
  9
$DIMTIH
 70
     1
  9
$DIMTOH
 70
     1
  9
$DIMSE1
 70
     0
  9
$DIMSE2
 70
     0
  9
$DIMTAD
 70
     0
  9
$DIMZIN
 70
     0
  9
$DIMBLK
  1

  9
$DIMASO
 70
     1
  9
$DIMSHO
 70
     1
  9
$DIMPOST
  1

  9
$DIMAPOST
  1

  9
$DIMALT
 70
     0
  9
$DIMALTD
 70
     2
  9
$DIMALTF
 40
25.4
  9
$DIMLFAC
 40
1.0
  9
$DIMTOFL
 70
     0
  9
$DIMTVP
 40
0.0
  9
$DIMTIX
 70
     0
  9
$DIMSOXD
 70
     0
  9
$DIMSAH
 70
     0
  9
$DIMBLK1
  1

  9
$DIMBLK2
  1

  9
$DIMSTYLE
  2
STANDARD
  9
$DIMCLRD
 70
     0
  9
$DIMCLRE
 70
     0
  9
$DIMCLRT
 70
     0
  9
$DIMTFAC
 40
1.0
  9
$DIMGAP
 40
0.09
  9
$DIMJUST
 70
     0
  9
$DIMSD1
 70
     0
  9
$DIMSD2
 70
     0
  9
$DIMTOLJ
 70
     1
  9
$DIMTZIN
 70
     0
  9
$DIMALTZ
 70
     0
  9
$DIMALTTZ
 70
     0
  9
$DIMFIT
 70
     3
  9
$DIMUPT
 70
     0
  9
$DIMUNIT
 70
     2
  9
$DIMDEC
 70
     2
  9
$DIMTDEC
 70
     2
  9
$DIMALTU
 70
     2
  9
$DIMALTTD
 70
     2
  9
$DIMTXSTY
  7
STANDARD
  9
$DIMAUNIT
 70
     0
  9
$LUNITS
 70
     2
  9
$LUPREC
 70
     4
  9
$SKETCHINC
 40
0.1
  9
$FILLETRAD
 40
0.5
  9
$AUNITS
 70
     0
  9
$AUPREC
 70
     0
  9
$MENU
  1
.
  9
$ELEVATION
 40
0.0
  9
$PELEVATION
 40
0.0
  9
$THICKNESS
 40
0.0
  9
$LIMCHECK
 70
     0
  9
$BLIPMODE
 70
     0
  9
$CHAMFERA
 40
0.5
  9
$CHAMFERB
 40
0.5
  9
$CHAMFERC
 40
1.0
  9
$CHAMFERD
 40
0.0
  9
$SKPOLY
 70
     0
  9
$TDCREATE
 40
2452181.637659954
  9
$TDUPDATE
 40
2452643.326200810
  9
$TDINDWG
 40
0.0011074074
  9
$TDUSRTIMER
 40
0.0011074074
  9
$USRTIMER
 70
     1
  9
$ANGBASE
 50
0.0
  9
$ANGDIR
 70
     0
  9
$PDMODE
 70
     0
  9
$PDSIZE
 40
0.0
  9
$PLINEWID
 40
0.0
  9
$COORDS
 70
     1
  9
$SPLFRAME
 70
     0
  9
$SPLINETYPE
 70
     6
  9
$SPLINESEGS
 70
     8
  9
$ATTDIA
 70
     1
  9
$ATTREQ
 70
     1
  9
$HANDLING
 70
-16383
  9
$HANDSEED
  5
246
  9
$SURFTAB1
 70
     6
  9
$SURFTAB2
 70
     6
  9
$SURFTYPE
 70
     6
  9
$SURFU
 70
     6
  9
$SURFV
 70
     6
  9
$UCSNAME
  2

  9
$UCSORG
 10
0.0
 20
0.0
 30
0.0
  9
$UCSXDIR
 10
1.0
 20
0.0
 30
0.0
  9
$UCSYDIR
 10
0.0
 20
1.0
 30
0.0
  9
$PUCSNAME
  2

  9
$PUCSORG
 10
0.0
 20
0.0
 30
0.0
  9
$PUCSXDIR
 10
1.0
 20
0.0
 30
0.0
  9
$PUCSYDIR
 10
0.0
 20
1.0
 30
0.0
  9
$USERI1
 70
     0
  9
$USERI2
 70
     0
  9
$USERI3
 70
     0
  9
$USERI4
 70
     0
  9
$USERI5
 70
     0
  9
$USERR1
 40
0.0
  9
$USERR2
 40
0.0
  9
$USERR3
 40
0.0
  9
$USERR4
 40
0.0
  9
$USERR5
 40
0.0
  9
$WORLDVIEW
 70
     1
  9
$SHADEDGE
 70
     3
  9
$SHADEDIF
 70
    70
  9
$TILEMODE
 70
     1
  9
$MAXACTVP
 70
    64
  9
$PINSBASE
 10
0.0
 20
0.0
 30
0.0
  9
$PLIMCHECK
 70
     0
  9
$PEXTMIN
 10
1.000000000000000E+20
 20
1.000000000000000E+20
 30
1.000000000000000E+20
  9
$PEXTMAX
 10
-1.000000000000000E+20
 20
-1.000000000000000E+20
 30
-1.000000000000000E+20
  9
$PLIMMIN
 10
0.0
 20
0.0
  9
$PLIMMAX
 10
12.0
 20
9.0
  9
$UNITMODE
 70
     0
  9
$VISRETAIN
 70
     1
  9
$PLINEGEN
 70
     0
  9
$PSLTSCALE
 70
     1
  9
$TREEDEPTH
 70
  3020
  9
$PICKSTYLE
 70
     1
  9
$CMLSTYLE
  2
STANDARD
  9
$CMLJUST
 70
     0
  9
$CMLSCALE
 40
1.0
  9
$PROXYGRAPHICS
 70
     1
  9
$MEASUREMENT
 70
     0
  0
ENDSEC
  0
SECTION
  2
CLASSES
  0
CLASS
  1
ACDBDICTIONARYWDFLT
  2
AcDbDictionaryWithDefault
  3
AutoCAD 2000
 90
        0
280
     0
281
     0
  0
CLASS
  1
ACDBPLACEHOLDER
  2
AcDbPlaceHolder
  3
AutoCAD 2000
 90
        0
280
     0
281
     0
  0
CLASS
  1
LAYOUT
  2
AcDbLayout
  3
AutoCAD 2000
 90
        0
280
     0
281
     0
  0
CLASS
  1
LONG_TRANSACTION
  2
AcDbLongTransaction
  3
AutoCAD 2000
 90
        0
280
     0
281
     0
  0
CLASS
  1
LWPOLYLINE
  2
AcDbPolyline
  3
AutoCAD 2000
 90
        0
280
     0
281
     1
  0
CLASS
  1
HATCH
  2
AcDbHatch
  3
AutoCAD 2000
 90
        0
280
     0
281
     1
  0
CLASS
  1
XRECORD
  2
AcDbXrecord
  3
AutoCAD 2000
 90
        0
280
     0
281
     0
  0
ENDSEC
  0
SECTION
  2
TABLES
  0
TABLE
  2
VPORT
  5
8
330
0
100
AcDbSymbolTable
 70
     3
  0
VPORT
  5
21F
330
8
100
AcDbSymbolTableRecord
100
AcDbViewportTableRecord
  2
*ACTIVE
 70
     0
 10
0.0
 20
0.0
 11
1.0
 21
1.0
 12
6.581321473842802
 22
5.283088231257247
 13
0.0
 23
0.0
 14
0.5
 24
0.5
 15
0.5
 25
0.5
 16
0.0
 26
0.0
 36
1.0
 17
0.0
 27
0.0
 37
0.0
 40
8.99999999580908
 41
1.462515883100381
 42
50.0
 43
0.0
 44
0.0
 50
0.0
 51
0.0
 71
     0
 72
   100
 73
     1
 74
     3
 75
     0
 76
     0
 77
     0
 78
     0
  0
ENDTAB
  0
TABLE
  2
LTYPE
  5
5
330
0
100
AcDbSymbolTable
 70
     1
  0
LTYPE
  5
14
330
5
100
AcDbSymbolTableRecord
100
AcDbLinetypeTableRecord
  2
BYBLOCK
 70
     0
  3

 72
    65
 73
     0
 40
0.0
  0
LTYPE
  5
15
330
5
100
AcDbSymbolTableRecord
100
AcDbLinetypeTableRecord
  2
BYLAYER
 70
     0
  3

 72
    65
 73
     0
 40
0.0
  0
LTYPE
  5
16
330
5
100
AcDbSymbolTableRecord
100
AcDbLinetypeTableRecord
  2
CONTINUOUS
 70
     0
  3
Solid line
 72
    65
 73
     0
 40
0.0
  0
ENDTAB
  0
TABLE
  2
LAYER
  5
2
330
0
100
AcDbSymbolTable
 70
     4
  0
LAYER
  5
10
330
2
100
AcDbSymbolTableRecord
100
AcDbLayerTableRecord
  2
0
 70
     0
 62
     7
  6
CONTINUOUS
  0
LAYER
  5
34
330
2
100
AcDbSymbolTableRecord
100
AcDbLayerTableRecord
  2
L
 70
     0
 62
     7
  6
CONTINUOUS
  0
LAYER
  5
45
330
2
100
AcDbSymbolTableRecord
100
AcDbLayerTableRecord
  2
DEFPOINTS
 70
     0
 62
     7
  6
CONTINUOUS
  0
LAYER
  5
88
330
2
100
AcDbSymbolTableRecord
100
AcDbLayerTableRecord
  2
TX
 70
     0
 62
   150
  6
CONTINUOUS
  0
ENDTAB
  0
TABLE
  2
STYLE
  5
3
330
0
100
AcDbSymbolTable
 70
     3
  0
STYLE
  5
11
330
3
100
AcDbSymbolTableRecord
100
AcDbTextStyleTableRecord
  2
STANDARD
 70
     0
 40
0.0
 41
1.0
 50
0.0
 71
     0
 42
0.2
  3
txt
  4

  0
STYLE
  5
35
330
3
100
AcDbSymbolTableRecord
100
AcDbTextStyleTableRecord
  2
REG
 70
     0
 40
0.0
 41
1.0
 50
0.0
 71
     0
 42
0.09375
  3
E:\R13\com\fonts\ARCHITXT.SHX
  4

  0
STYLE
  5
36
330
3
100
AcDbSymbolTableRecord
100
AcDbTextStyleTableRecord
  2
DIMTXT
 70
     0
 40
0.0
 41
1.0
 50
0.0
 71
     0
 42
1.125
  3
archt.shx
  4

  0
ENDTAB
  0
TABLE
  2
VIEW
  5
6
330
0
100
AcDbSymbolTable
 70
     0
  0
ENDTAB
  0
TABLE
  2
UCS
  5
7
330
0
100
AcDbSymbolTable
 70
     0
  0
ENDTAB
  0
TABLE
  2
APPID
  5
9
330
0
100
AcDbSymbolTable
 70
     1
  0
APPID
  5
12
330
9
100
AcDbSymbolTableRecord
100
AcDbRegAppTableRecord
  2
ACAD
 70
     0
  0
ENDTAB
  0
TABLE
  2
DIMSTYLE
  5
A
330
0
100
AcDbSymbolTable
 70
     6
  0
DIMSTYLE
105
27
102
{ACAD_REACTORS
330
C1
330
CF
102
}
330
A
100
AcDbSymbolTableRecord
100
AcDbDimStyleTableRecord
  2
STANDARD
 70
     0
  3

  4

  5

  6

  7

 40
1.0
 41
0.18
 42
0.0625
 43
0.38
 44
0.18
 45
0.0
 46
0.0
 47
0.0
 48
0.0
140
0.18
141
0.09
142
0.0
143
25.4
144
1.0
145
0.0
146
1.0
147
0.09
 71
     0
 72
     0
 73
     1
 74
     1
 75
     0
 76
     0
 77
     0
 78
     0
170
     0
171
     2
172
     0
173
     0
174
     0
175
     0
176
     0
177
     0
178
     0
270
     2
271
     2
272
     2
273
     2
274
     2
340
11
275
     0
280
     0
281
     0
282
     0
283
     1
284
     0
285
     0
286
     0
287
     3
288
     0
  0
DIMSTYLE
105
37
330
A
100
AcDbSymbolTableRecord
100
AcDbDimStyleTableRecord
  2
1
 70
     0
  3

  4

  5

  6

  7

 40
1.0
 41
1.125
 42
0.5
 43
0.375
 44
1.19921875
 45
0.0
 46
0.5
 47
0.0
 48
0.0
140
1.125
141
0.125
142
0.0
143
25.4
144
1.0
145
0.0
146
0.8
147
0.5625
 71
     0
 72
     0
 73
     0
 74
     0
 75
     0
 76
     0
 77
     1
 78
     3
170
     0
171
     2
172
     1
173
     0
174
     1
175
     0
176
   133
177
   133
178
   150
270
     2
271
     3
272
     3
273
     2
274
     2
340
36
275
     0
280
     0
281
     0
282
     0
283
     1
284
     0
285
     0
286
     0
287
     4
288
     0
  0
DIMSTYLE
105
38
330
A
100
AcDbSymbolTableRecord
100
AcDbDimStyleTableRecord
  2
1$2
 70
     0
  3

  4

  5
DOTSMALL
  6

  7

 40
1.0
 41
1.5
 42
0.5
 43
0.375
 44
1.19921875
 45
0.0
 46
0.5
 47
0.0
 48
0.0
140
0.75
141
0.125
142
0.0
143
25.4
144
1.0
145
0.0
146
0.8
147
0.5625
 71
     0
 72
     0
 73
     0
 74
     0
 75
     0
 76
     0
 77
     1
 78
     3
170
     0
171
     2
172
     1
173
     0
174
     1
175
     0
176
   133
177
   133
178
   150
270
     2
271
     3
272
     3
273
     2
274
     2
340
36
275
     0
280
     0
281
     0
282
     0
283
     1
284
     0
285
     0
286
     0
287
     4
288
     0
  0
DIMSTYLE
105
39
330
A
100
AcDbSymbolTableRecord
100
AcDbDimStyleTableRecord
  2
1$4
 70
     0
  3

  4

  5

  6

  7
DOTSMALL
 40
1.0
 41
1.5
 42
0.5
 43
0.375
 44
1.19921875
 45
0.0
 46
0.5
 47
0.0
 48
0.0
140
0.75
141
0.125
142
0.0
143
25.4
144
1.0
145
0.0
146
0.8
147
0.5625
 71
     0
 72
     0
 73
     0
 74
     0
 75
     0
 76
     0
 77
     1
 78
     3
170
     0
171
     2
172
     1
173
     1
174
     1
175
     0
176
   133
177
   133
178
   150
270
     2
271
     3
272
     3
273
     2
274
     2
340
36
275
     0
280
     0
281
     0
282
     0
283
     1
284
     0
285
     0
286
     0
287
     4
288
     0
  0
DIMSTYLE
105
3A
330
A
100
AcDbSymbolTableRecord
100
AcDbDimStyleTableRecord
  2
1$3
 70
     0
  3

  4

  5
DOTSMALL
  6

  7

 40
1.0
 41
1.5
 42
0.5
 43
0.375
 44
1.19921875
 45
0.0
 46
0.5
 47
0.0
 48
0.0
140
0.75
141
0.125
142
0.0
143
25.4
144
1.0
145
0.0
146
0.8
147
0.5625
 71
     0
 72
     0
 73
     0
 74
     0
 75
     0
 76
     0
 77
     1
 78
     3
170
     0
171
     2
172
     1
173
     0
174
     1
175
     0
176
   133
177
   133
178
   150
270
     2
271
     3
272
     3
273
     2
274
     2
340
36
275
     0
280
     0
281
     0
282
     0
283
     1
284
     0
285
     0
286
     0
287
     4
288
     0
  0
DIMSTYLE
105
3B
330
A
100
AcDbSymbolTableRecord
100
AcDbDimStyleTableRecord
  2
1$7
 70
     0
  3

  4

  5

  6

  7

 40
1.0
 41
1.0
 42
0.5
 43
0.375
 44
1.19921875
 45
0.0
 46
0.5
 47
0.0
 48
0.0
140
0.75
141
0.125
142
0.0
143
25.4
144
1.0
145
0.0
146
0.8
147
0.5625
 71
     0
 72
     0
 73
     0
 74
     0
 75
     0
 76
     0
 77
     1
 78
     3
170
     0
171
     2
172
     1
173
     0
174
     1
175
     0
176
   133
177
   133
178
   150
270
     2
271
     3
272
     3
273
     2
274
     2
340
36
275
     0
280
     0
281
     0
282
     0
283
     1
284
     0
285
     0
286
     0
287
     4
288
     0
  0
ENDTAB
  0
TABLE
  2
BLOCK_RECORD
  5
1
330
0
100
AcDbSymbolTable
 70
     5
  0
BLOCK_RECORD
  5
1F
102
{ACAD_XDICTIONARY
360
242
102
}
330
1
100
AcDbSymbolTableRecord
100
AcDbBlockTableRecord
  2
*MODEL_SPACE
  0
BLOCK_RECORD
  5
1B
102
{ACAD_XDICTIONARY
360
240
102
}
330
1
100
AcDbSymbolTableRecord
100
AcDbBlockTableRecord
  2
*PAPER_SPACE
  0
BLOCK_RECORD
  5
2B
330
1
100
AcDbSymbolTableRecord
100
AcDbBlockTableRecord
  2
_DOT
  0
BLOCK_RECORD
  5
30
330
1
100
AcDbSymbolTableRecord
100
AcDbBlockTableRecord
  2
_DOTSMALL
  0
BLOCK_RECORD
  5
C2
330
1
100
AcDbSymbolTableRecord
100
AcDbBlockTableRecord
  2
*D3
  0
BLOCK_RECORD
  5
D0
330
1
100
AcDbSymbolTableRecord
100
AcDbBlockTableRecord
  2
*D4
  0
ENDTAB
  0
ENDSEC
  0
SECTION
  2
BLOCKS
  0
BLOCK
  5
20
330
1F
100
AcDbEntity
  8
0
100
AcDbBlockBegin
  2
*MODEL_SPACE
 70
     0
 10
0.0
 20
0.0
 30
0.0
  3
*MODEL_SPACE
  1

  0
ENDBLK
  5
21
330
1F
100
AcDbEntity
  8
0
100
AcDbBlockEnd
  0
BLOCK
  5
1C
330
1B
100
AcDbEntity
 67
     1
  8
0
100
AcDbBlockBegin
  2
*PAPER_SPACE
 70
     0
 10
0.0
 20
0.0
 30
0.0
  3
*PAPER_SPACE
  1

  0
ENDBLK
  5
1D
330
1B
100
AcDbEntity
 67
     1
  8
0
100
AcDbBlockEnd
  0
BLOCK
  5
2E
330
2B
100
AcDbEntity
  8
0
100
AcDbBlockBegin
  2
_DOT
 70
     0
 10
0.0
 20
0.0
 30
0.0
  3
_DOT
  1

  0
LWPOLYLINE
  5
2C
330
2B
100
AcDbEntity
  8
L
 62
     0
100
AcDbPolyline
 90
        2
 70
     1
 43
0.5
 10
-0.25
 20
0.0
 42
1.0
 10
0.25
 20
0.0
 42
1.0
  0
LINE
  5
2D
330
2B
100
AcDbEntity
  8
L
 62
     0
100
AcDbLine
 10
-0.5
 20
0.0
 30
0.0
 11
-1.0
 21
0.0
 31
0.0
  0
ENDBLK
  5
2F
330
2B
100
AcDbEntity
  8
0
100
AcDbBlockEnd
  0
BLOCK
  5
32
330
30
100
AcDbEntity
  8
0
 48
0.116666
100
AcDbBlockBegin
  2
_DOTSMALL
 70
     0
 10
0.0
 20
0.0
 30
0.0
  3
_DOTSMALL
  1

  0
LWPOLYLINE
  5
31
330
30
100
AcDbEntity
  8
0
  6
BYBLOCK
 62
     0
100
AcDbPolyline
 90
        2
 70
     1
 43
0.5
 10
-0.0625
 20
0.0
 42
1.0
 10
0.0625
 20
0.0
 42
1.0
  0
ENDBLK
  5
33
330
30
100
AcDbEntity
  8
0
 48
0.116666
100
AcDbBlockEnd
  0
BLOCK
  5
CD
330
C2
100
AcDbEntity
  8
0
100
AcDbBlockBegin
  2
*D3
 70
     1
 10
0.0
 20
0.0
 30
0.0
  3
*D3
  1

  0
LINE
  5
C3
330
C2
100
AcDbEntity
  8
0
 62
     0
100
AcDbLine
 10
5.420990372016355
 20
5.215213528509694
 30
0.0
 11
5.420990372016355
 21
7.831509292160454
 31
0.0
  0
LINE
  5
C4
330
C2
100
AcDbEntity
  8
0
 62
     0
100
AcDbLine
 10
8.090530207533934
 20
6.736169109893339
 30
0.0
 11
8.090530207533934
 21
7.831509292160454
 31
0.0
  0
LINE
  5
C5
330
C2
100
AcDbEntity
  8
0
 62
     0
100
AcDbLine
 10
5.600990372016354
 20
7.651509292160454
 30
0.0
 11
6.395760289775144
 21
7.651509292160454
 31
0.0
  0
LINE
  5
C6
330
C2
100
AcDbEntity
  8
0
 62
     0
100
AcDbLine
 10
7.910530207533934
 20
7.651509292160454
 30
0.0
 11
7.115760289775145
 21
7.651509292160454
 31
0.0
  0
SOLID
  5
C7
330
C2
100
AcDbEntity
  8
0
 62
     0
100
AcDbTrace
 10
5.600990372016354
 20
7.681509292160455
 30
0.0
 11
5.600990372016354
 21
7.621509292160454
 31
0.0
 12
5.420990372016355
 22
7.651509292160454
 32
0.0
 13
5.420990372016355
 23
7.651509292160454
 33
0.0
  0
SOLID
  5
C8
330
C2
100
AcDbEntity
  8
0
 62
     0
100
AcDbTrace
 10
7.910530207533934
 20
7.681509292160455
 30
0.0
 11
7.910530207533934
 21
7.621509292160454
 31
0.0
 12
8.090530207533934
 22
7.651509292160454
 32
0.0
 13
8.090530207533934
 23
7.651509292160454
 33
0.0
  0
MTEXT
  5
C9
330
C2
100
AcDbEntity
  8
0
 62
     0
100
AcDbMText
 10
6.755760289775144
 20
7.651509292160454
 30
0.0
 40
0.18
 41
0.0
 71
     5
 72
     1
  1
\A1;2.67
1001
ACAD
1000
MTEXTBEGIN
1070
    73
1070
     1
1070
    44
1040
1.0
1070
    74
1070
     0
1000
MTEXTEND
  0
POINT
  5
CA
330
C2
100
AcDbEntity
  8
DEFPOINTS
 62
     0
100
AcDbPoint
 10
5.420990372016355
 20
5.152713528509694
 30
0.0
  0
POINT
  5
CB
330
C2
100
AcDbEntity
  8
DEFPOINTS
 62
     0
100
AcDbPoint
 10
8.090530207533934
 20
6.673669109893339
 30
0.0
  0
POINT
  5
CC
330
C2
100
AcDbEntity
  8
DEFPOINTS
 62
     0
100
AcDbPoint
 10
8.090530207533934
 20
7.651509292160454
 30
0.0
  0
ENDBLK
  5
CE
330
C2
100
AcDbEntity
  8
0
100
AcDbBlockEnd
  0
BLOCK
  5
DB
330
D0
100
AcDbEntity
  8
0
100
AcDbBlockBegin
  2
*D4
 70
     1
 10
0.0
 20
0.0
 30
0.0
  3
*D4
  1

  0
LINE
  5
D1
330
D0
100
AcDbEntity
  8
0
 62
     0
100
AcDbLine
 10
5.800994760649164
 20
7.239601039000874
 30
0.0
 11
4.663218635395083
 21
7.239601039000874
 31
0.0
  0
LINE
  5
D2
330
D0
100
AcDbEntity
  8
0
 62
     0
100
AcDbLine
 10
5.38699477316155
 20
5.104601039000883
 30
0.0
 11
4.663218635395082
 21
5.104601039000883
 31
0.0
  0
LINE
  5
D3
330
D0
100
AcDbEntity
  8
0
 62
     0
100
AcDbLine
 10
4.843218635395083
 20
7.059601039000874
 30
0.0
 11
4.843218635395083
 21
6.352101039000878
 31
0.0
  0
LINE
  5
D4
330
D0
100
AcDbEntity
  8
0
 62
     0
100
AcDbLine
 10
4.843218635395082
 20
5.284601039000882
 30
0.0
 11
4.843218635395082
 21
5.992101039000878
 31
0.0
  0
SOLID
  5
D5
330
D0
100
AcDbEntity
  8
0
 62
     0
100
AcDbTrace
 10
4.813218635395083
 20
7.059601039000874
 30
0.0
 11
4.873218635395083
 21
7.059601039000874
 31
0.0
 12
4.843218635395083
 22
7.239601039000874
 32
0.0
 13
4.843218635395083
 23
7.239601039000874
 33
0.0
  0
SOLID
  5
D6
330
D0
100
AcDbEntity
  8
0
 62
     0
100
AcDbTrace
 10
4.813218635395082
 20
5.284601039000882
 30
0.0
 11
4.873218635395082
 21
5.284601039000882
 31
0.0
 12
4.843218635395082
 22
5.104601039000883
 32
0.0
 13
4.843218635395082
 23
5.104601039000883
 33
0.0
  0
MTEXT
  5
D7
330
D0
100
AcDbEntity
  8
0
 62
     0
100
AcDbMText
 10
4.843218635395081
 20
6.172101039000879
 30
0.0
 40
0.18
 41
0.0
 71
     5
 72
     1
  1
\A1;2.14
1001
ACAD
1000
MTEXTBEGIN
1070
    73
1070
     1
1070
    44
1040
1.0
1070
    74
1070
     0
1000
MTEXTEND
  0
POINT
  5
D8
330
D0
100
AcDbEntity
  8
DEFPOINTS
 62
     0
100
AcDbPoint
 10
5.863494760649164
 20
7.239601039000874
 30
0.0
  0
POINT
  5
D9
330
D0
100
AcDbEntity
  8
DEFPOINTS
 62
     0
100
AcDbPoint
 10
5.44949477316155
 20
5.104601039000883
 30
0.0
  0
POINT
  5
DA
330
D0
100
AcDbEntity
  8
DEFPOINTS
 62
     0
100
AcDbPoint
 10
4.843218635395082
 20
5.104601039000883
 30
0.0
  0
ENDBLK
  5
DC
330
D0
100
AcDbEntity
  8
0
100
AcDbBlockEnd
  0
ENDSEC
  0
SECTION
  2
ENTITIES
  0
LWPOLYLINE
  5
BD
330
1F
100
AcDbEntity
  8
L
 62
     5
 48
0.116666
100
AcDbPolyline
 90
        2
 70
     0
 43
0.028125
 10
4.909336050060719
 20
3.964625385108817
 10
7.451910403509064
 20
3.964625385108817
  0
TEXT
  5
BE
330
1F
100
AcDbEntity
  8
L
 62
     3
 48
0.116666
100
AcDbText
 10
5.003071892741818
 20
4.058361227789802
 30
0.0
 40
0.140625
  1
DUAL FRAME #2065
  7
REG
100
AcDbText
  0
TEXT
  5
BF
330
1F
100
AcDbEntity
  8
TX
 48
0.116666
100
AcDbText
 10
5.003071892741818
 20
3.777139542427832
 30
0.0
 40
0.09375
  1
SCALE : FULL SIZE
  7
REG
 11
5.003071892741818
 21
3.870889542427832
 31
0.0
100
AcDbText
 73
     3
  0
DIMENSION
  5
C1
330
1F
100
AcDbEntity
  8
0
100
AcDbDimension
  2
*D3
 10
8.090530207533934
 20
7.651509292160454
 30
0.0
 11
6.755760289775144
 21
7.651509292160454
 31
0.0
 70
    32
  3
STANDARD
100
AcDbAlignedDimension
 13
5.420990372016355
 23
5.152713528509694
 33
0.0
 14
8.090530207533934
 24
6.673669109893339
 34
0.0
100
AcDbRotatedDimension
  0
DIMENSION
  5
CF
330
1F
100
AcDbEntity
  8
0
100
AcDbDimension
  2
*D4
 10
4.843218635395082
 20
5.104601039000883
 30
0.0
 11
4.843218635395081
 21
6.172101039000879
 31
0.0
 70
    32
  3
STANDARD
100
AcDbAlignedDimension
 13
5.863494760649164
 23
7.239601039000874
 33
0.0
 14
5.44949477316155
 24
5.104601039000883
 34
0.0
 50
90.0
100
AcDbRotatedDimension
  0
LWPOLYLINE
  5
162
330
1F
100
AcDbEntity
  8
L
 62
     5
100
AcDbPolyline
 90
        8
 70
     1
 43
0.0
 10
7.164994760649197
 20
5.98960103900093
 42
-0.414213562373632
 10
7.226994760649095
 20
5.927601039000862
 10
7.226994760649152
 20
5.561601039000876
 42
-0.4142135623736325
 10
7.164994760649197
 20
5.499601039000864
 10
5.968494760649182
 20
5.499601039000808
 42
-0.4142135623730951
 10
5.906494760649056
 20
5.561601039000876
 10
5.906494760649113
 20
5.927601039000862
 42
-0.4142135623730951
 10
5.968494760649182
 20
5.989601039000874
  0
LWPOLYLINE
  5
1DC
330
1F
100
AcDbEntity
  8
L
 62
     5
100
AcDbPolyline
 90
      178
 70
     1
 43
0.0
 10
7.955121744775995
 20
6.655519019143008
 42
0.3408540656164281
 10
7.931994760648978
 20
6.625535429947191
 10
7.931994760649022
 20
6.625535429947191
 10
7.931994760649022
 20
6.595601039000868
 10
7.931994760649034
 20
6.595601039000868
 42
-0.3153057630674749
 10
7.911596645927278
 20
6.566470298733148
 10
7.911596645927327
 20
6.566470298733012
 42
0.4433576303926726
 10
7.894251180209396
 20
6.523925179154197
 10
7.894251180209577
 20
6.523925179154283
 42
0.520569192000608
 10
8.04620202044137
 20
6.498880538156463
 10
8.046202020441317
 20
6.498880538156513
 42
-0.9999998898605239
 10
8.090530205146681
 20
6.455532965667075
 10
8.090530205146615
 20
6.45553296566714
 42
-0.61339227094915
 10
7.825153249296915
 20
6.538740076434044
 10
7.825153249297094
 20
6.538740076434074
 42
0.3662336278377242
 10
7.794582179733342
 20
6.564601039000726
 10
7.794582179733342
 20
6.564601039000805
 10
7.353994760649047
 20
6.564601039000805
 42
0.4142135623730951
 10
7.291994760649149
 20
6.502601039000907
 10
7.291994760649149
 20
5.759601039000855
 10
7.276994760649049
 20
5.744601039000869
 10
7.291994760649149
 20
5.729601039000883
 10
7.291994760649149
 20
5.496601039000822
 10
7.29199476064932
 20
5.496601039000822
 42
-0.4142135623741692
 10
7.229994760649024
 20
5.434601039000753
 10
7.229994760649024
 20
5.43460103900081
 10
7.137994760649153
 20
5.43460103900081
 42
0.4142135623730951
 10
7.106994760649204
 20
5.403601039000861
 10
7.106994760649204
 20
5.135601039000832
 10
7.106994760649318
 20
5.135601039000832
 42
-0.4142135623741692
 10
7.075994760649027
 20
5.104601039000883
 10
6.979210720796263
 20
5.104601039000883
 10
6.979210720796263
 20
5.104601039000863
 42
-0.3954280516451841
 10
6.917339887603201
 20
5.162601039000878
 10
6.917339887603166
 20
5.162601039000875
 10
7.052494760649015
 20
5.162601039000875
 10
7.052494760649015
 20
5.43460103900081
 10
5.906494760649056
 20
5.43460103900081
 10
5.906494760649056
 20
5.162601039000875
 10
6.07261293669163
 20
5.162601039000875
 10
6.072612936691645
 20
5.162601039000904
 42
-0.2797256002359841
 10
6.105994760649099
 20
5.107601039000812
 10
6.105994760649
 20
5.107601039000812
 10
6.105994760649
 20
5.104601039000883
 10
6.045994760649055
 20
5.104601039000883
 10
6.035994760649064
 20
5.114601039000874
 10
6.025994760649073
 20
5.104601039000883
 10
5.44949477316155
 20
5.104601039000883
 10
5.44949477316155
 20
5.104601039000854
 42
-1.687898353064253
 10
5.476880888524341
 20
5.15460103900084
 10
5.476880888524338
 20
5.154601039000837
 10
5.820994760649146
 20
5.154601039000837
 10
5.820994760649146
 20
5.15460103900078
 42
0.4142135623741695
 10
5.851994760649152
 20
5.1856010390009
 10
5.851994760649095
 20
5.1856010390009
 10
5.851994760649095
 20
5.973601039000911
 42
0.4142135623730951
 10
5.820994760649146
 20
6.00460103900086
 10
5.793240334541597
 20
6.00460103900086
 10
5.793240334541597
 20
6.004601039000935
 42
0.3504965132043354
 10
5.754224847842849
 20
5.973421096373337
 10
5.754224847842808
 20
5.973421096373347
 42
-0.9970672039764149
 10
5.707094901419623
 20
5.983930155572654
 10
5.707094901419718
 20
5.983930155572633
 42
-0.3521462952888768
 10
5.7949947909207
 20
6.054601039000809
 10
5.7949947909207
 20
6.054601039000814
 10
7.099994760649142
 20
6.054601039000814
 10
7.099994760649142
 20
6.054601039000871
 42
0.4142135623730951
 10
7.161994760649097
 20
6.116601039000826
 10
7.16199476064904
 20
6.116601039000826
 10
7.16199476064904
 20
6.514601039000851
 10
7.106994760649204
 20
6.569601039000914
 10
7.106994760649204
 20
6.620549296176406
 10
7.106994760649141
 20
6.620549296176406
 42
0.3882106758841115
 10
7.050541800927165
 20
6.682300655223483
 10
7.050541800927167
 20
6.6823006552235
 10
6.356994760649204
 20
6.744601038996208
 10
6.356994760649204
 20
6.687508117560966
 10
6.356994760648995
 20
6.687508117560966
 42
-0.7673269879741712
 10
6.342239951177348
 20
6.683554578278468
 10
6.342239951177507
 20
6.68355457827856
 10
6.306994760649022
 20
6.744601038996208
 10
6.266994760649058
 20
6.744601038996208
 10
6.266994760649058
 20
6.687508117560966
 10
6.266994760648963
 20
6.687508117560966
 42
-0.7673269879848279
 10
6.252239951177479
 20
6.683554578278497
 10
6.252239951177589
 20
6.68355457827856
 10
6.216994760649104
 20
6.744601038996208
 10
6.17699476064914
 20
6.744601038996208
 10
6.17699476064914
 20
6.687508117560966
 10
6.176994760649159
 20
6.687508117560966
 42
-0.7673269879798825
 10
6.162239951177455
 20
6.683554578278567
 10
6.162239951177443
 20
6.68355457827856
 10
6.126994760649186
 20
6.744601038996208
 10
6.086994760648995
 20
6.744601038996208
 10
6.086994760648995
 20
6.687508117560966
 10
6.086994760648899
 20
6.687508117560966
 42
-0.7673269879848279
 10
6.072239951177416
 20
6.683554578278497
 10
6.072239951177525
 20
6.68355457827856
 10
6.03699476064904
 20
6.744601038996208
 10
5.996994760649076
 20
6.744601038996208
 10
5.996994760649076
 20
6.687508117560966
 10
5.996994760648868
 20
6.687508117560966
 42
-0.7673269879741712
 10
5.982239951177221
 20
6.683554578278468
 10
5.98223995117738
 20
6.68355457827856
 10
5.946994760649122
 20
6.744601038996208
 10
5.906994760649158
 20
6.744601038996208
 10
5.906994760649158
 20
6.687508117560966
 10
5.906994760649176
 20
6.687508117560966
 42
-0.7673269879798825
 10
5.892239951177473
 20
6.683554578278567
 10
5.892239951177462
 20
6.68355457827856
 10
5.856994760649204
 20
6.744601038996208
 10
5.816994760649013
 20
6.744601038996208
 10
5.816994760649013
 20
6.687508117560966
 10
5.816994760648918
 20
6.687508117560966
 42
-0.7673269879848279
 10
5.802239951177433
 20
6.683554578278497
 10
5.802239951177543
 20
6.68355457827856
 10
5.766994760649058
 20
6.744601038996208
 10
5.726994760649095
 20
6.744601038996208
 10
5.726994760649095
 20
6.687508117560966
 10
5.726994760648885
 20
6.687508117560966
 42
-0.7673269879741712
 10
5.712239951177239
 20
6.683554578278468
 10
5.712239951177398
 20
6.68355457827856
 10
5.67699476064914
 20
6.744601038996208
 10
5.636994760649177
 20
6.744601038996208
 10
5.636994760649177
 20
6.687508117560966
 10
5.636994760649194
 20
6.687508117560966
 42
-0.7673269879798825
 10
5.622239951177491
 20
6.683554578278567
 10
5.62223995117748
 20
6.68355457827856
 10
5.586994760648995
 20
6.744601038996208
 10
5.546994760649031
 20
6.744601038996208
 10
5.546994760649031
 20
6.688200499658861
 10
5.54699476064895
 20
6.688200499658861
 42
-0.6904392595092174
 10
5.531955727775872
 20
6.682501238871857
 10
5.531955727775912
 20
6.682501238871893
 10
5.496994760649076
 20
6.744601038996208
 10
5.496994760649076
 20
6.778601038881035
 10
5.496994760649077
 20
6.778601038881035
 42
-0.4142135623730951
 10
5.527994760649026
 20
6.809601038880983
 10
5.527994760649026
 20
6.809601038880984
 10
5.768994760649011
 20
6.809601038880984
 10
5.768994760649011
 20
6.809601038880927
 42
0.4142135623730951
 10
5.83099476064908
 20
6.871601038880996
 10
5.830994760649137
 20
6.871601038880996
 10
5.830994760649137
 20
7.207101039000846
 42
-1.000000000000003
 10
5.895994760649191
 20
7.207101039000846
 10
5.895994760649191
 20
7.177601039000862
 10
5.895994760649192
 20
7.177601039000862
 42
0.4142135623730951
 10
5.92699476064914
 20
7.146601039000914
 10
5.92699476064914
 20
7.146601039000913
 10
5.988494765115465
 20
7.146601039000913
 42
-0.9999998625683637
 10
5.988494765115465
 20
7.081601039000858
 10
5.895994760649191
 20
7.081601039000858
 10
5.895994760649191
 20
6.809601038880984
 10
7.041994760649149
 20
6.809601038880984
 10
7.041994760649149
 20
7.081601039000858
 10
6.97449476064904
 20
7.081601039000858
 42
-1.000000000000003
 10
6.97449476064904
 20
7.146601039000913
 10
7.0109947606492
 20
7.146601039000913
 42
0.4142135623730951
 10
7.041994760649149
 20
7.177601039000862
 10
7.041994760649149
 20
7.207101039000846
 42
-1.000000000000003
 10
7.106994760649204
 20
7.207101039000846
 10
7.106994760649204
 20
6.809601038880984
 10
7.174994760649187
 20
6.809601038880984
 10
7.174994760649187
 20
6.809601038881041
 42
-0.414213562373632
 10
7.236994760649142
 20
6.747601038880972
 10
7.236994760649086
 20
6.747601038880972
 10
7.236994760649086
 20
6.65760103900088
 10
7.236994760649029
 20
6.65760103900088
 42
0.4142135623741692
 10
7.267994760649035
 20
6.62660103900076
 10
7.267994760649035
 20
6.626601039000817
 10
7.866994760649195
 20
6.626601039000817
 10
7.866994760649195
 20
6.720601039000868
 10
7.978994840155937
 20
6.720601039000868
 10
7.978994840155937
 20
6.72060103900088
 42
-0.2018205321601692
 10
8.090530205146656
 20
6.673669112334623
 42
-1.000000110145927
 10
8.046202010892507
 20
6.630321549610089
 10
8.046202010892475
 20
6.63032154961006
 42
0.269601929613362
 10
7.95512174477598
 20
6.655519019143064
  0
ENDSEC
  0
SECTION
  2
OBJECTS
  0
DICTIONARY
  5
C
330
0
100
AcDbDictionary
  3
ACAD_GROUP
350
D
  3
ACAD_LAYOUT
350
1A
  3
ACAD_MLINESTYLE
350
17
  3
ACAD_PLOTSETTINGS
350
19
  3
ACAD_PLOTSTYLENAME
350
E
  3
ACDBHEADERROUNDTRIPXREC
350
220
  0
DICTIONARY
  5
242
330
1F
100
AcDbDictionary
280
     1
  3
ACAD_LAYOUTSELFREF
360
243
  0
DICTIONARY
  5
240
330
1B
100
AcDbDictionary
280
     1
  3
ACAD_LAYOUTSELFREF
360
241
  0
DICTIONARY
  5
D
102
{ACAD_REACTORS
330
C
102
}
330
C
100
AcDbDictionary
  0
DICTIONARY
  5
1A
102
{ACAD_REACTORS
330
C
102
}
330
C
100
AcDbDictionary
  0
DICTIONARY
  5
17
102
{ACAD_REACTORS
330
C
102
}
330
C
100
AcDbDictionary
  3
STANDARD
350
18
  0
DICTIONARY
  5
19
102
{ACAD_REACTORS
330
C
102
}
330
C
100
AcDbDictionary
  0
ACDBDICTIONARYWDFLT
  5
E
102
{ACAD_REACTORS
330
C
102
}
330
C
100
AcDbDictionary
281
     1
  3
Normal
350
F
100
AcDbDictionaryWithDefault
340
F
  0
DICTIONARY
  5
220
102
{ACAD_REACTORS
330
C
102
}
330
C
100
AcDbDictionary
  3
CEPSNTYPE
350
22A
  3
FINGERPRINTGUID
350
22B
  3
HYPERLINKBASE
350
223
  3
INSUNITS
350
229
  3
LAYOUTDICT
350
225
  3
LWETCUNION
350
228
  3
PLOTSETDICT
350
226
  3
PLOTSTYLNAMDICT
350
227
  3
PSVPSCALE
350
22D
  3
PUCSBASE
350
230
  3
PUCSORGBACK
350
236
  3
PUCSORGBOTTOM
350
232
  3
PUCSORGFRONT
350
235
  3
PUCSORGLEFT
350
233
  3
PUCSORGRIGHT
350
234
  3
PUCSORGTOP
350
231
  3
PUCSORTHOREF
350
22E
  3
PUCSORTHOVIEW
350
22F
  3
STYLESHEET
350
224
  3
TSTACKALIGN
350
221
  3
TSTACKSIZE
350
222
  3
UCSBASE
350
239
  3
UCSORGBACK
350
23F
  3
UCSORGBOTTOM
350
23B
  3
UCSORGFRONT
350
23E
  3
UCSORGLEFT
350
23C
  3
UCSORGRIGHT
350
23D
  3
UCSORGTOP
350
23A
  3
UCSORTHOREF
350
237
  3
UCSORTHOVIEW
350
238
  3
VERSIONGUID
350
22C
  0
XRECORD
  5
243
102
{ACAD_REACTORS
330
242
102
}
330
242
100
AcDbXrecord
340
1F
  0
XRECORD
  5
241
102
{ACAD_REACTORS
330
240
102
}
330
240
100
AcDbXrecord
340
1B
  0
MLINESTYLE
  5
18
102
{ACAD_REACTORS
330
17
102
}
330
17
100
AcDbMlineStyle
  2
STANDARD
 70
     0
  3

 62
   256
 51
90.0
 52
90.0
 71
     2
 49
0.5
 62
   256
  6
BYLAYER
 49
-0.5
 62
   256
  6
BYLAYER
  0
ACDBPLACEHOLDER
  5
F
102
{ACAD_REACTORS
330
E
102
}
330
E
100
AcDbPlaceHolder
280
     0
  0
XRECORD
  5
22A
102
{ACAD_REACTORS
330
220
102
}
330
220
100
AcDbXrecord
 90
        0
  0
XRECORD
  5
22B
102
{ACAD_REACTORS
330
220
102
}
330
220
100
AcDbXrecord
  1
{DC175E3D-AE85-11D5-9A93-0040C77E826B}
  0
XRECORD
  5
223
102
{ACAD_REACTORS
330
220
102
}
330
220
100
AcDbXrecord
  1

  0
XRECORD
  5
229
102
{ACAD_REACTORS
330
220
102
}
330
220
100
AcDbXrecord
 90
        1
  0
XRECORD
  5
225
102
{ACAD_REACTORS
330
220
102
}
330
220
100
AcDbXrecord
340
1A
  0
XRECORD
  5
228
102
{ACAD_REACTORS
330
220
102
}
330
220
100
AcDbXrecord
 90
    10781
  0
XRECORD
  5
226
102
{ACAD_REACTORS
330
220
102
}
330
220
100
AcDbXrecord
340
19
  0
XRECORD
  5
227
102
{ACAD_REACTORS
330
220
102
}
330
220
100
AcDbXrecord
340
E
  0
XRECORD
  5
22D
102
{ACAD_REACTORS
330
220
102
}
330
220
100
AcDbXrecord
 40
0.0
  0
XRECORD
  5
230
102
{ACAD_REACTORS
330
220
102
}
330
220
100
AcDbXrecord
340
0
  0
XRECORD
  5
236
102
{ACAD_REACTORS
330
220
102
}
330
220
100
AcDbXrecord
 10
0.0
 20
0.0
 30
0.0
  0
XRECORD
  5
232
102
{ACAD_REACTORS
330
220
102
}
330
220
100
AcDbXrecord
 10
0.0
 20
0.0
 30
0.0
  0
XRECORD
  5
235
102
{ACAD_REACTORS
330
220
102
}
330
220
100
AcDbXrecord
 10
0.0
 20
0.0
 30
0.0
  0
XRECORD
  5
233
102
{ACAD_REACTORS
330
220
102
}
330
220
100
AcDbXrecord
 10
0.0
 20
0.0
 30
0.0
  0
XRECORD
  5
234
102
{ACAD_REACTORS
330
220
102
}
330
220
100
AcDbXrecord
 10
0.0
 20
0.0
 30
0.0
  0
XRECORD
  5
231
102
{ACAD_REACTORS
330
220
102
}
330
220
100
AcDbXrecord
 10
0.0
 20
0.0
 30
0.0
  0
XRECORD
  5
22E
102
{ACAD_REACTORS
330
220
102
}
330
220
100
AcDbXrecord
340
0
  0
XRECORD
  5
22F
102
{ACAD_REACTORS
330
220
102
}
330
220
100
AcDbXrecord
 70
     0
  0
XRECORD
  5
224
102
{ACAD_REACTORS
330
220
102
}
330
220
100
AcDbXrecord
  1

  0
XRECORD
  5
221
102
{ACAD_REACTORS
330
220
102
}
330
220
100
AcDbXrecord
 90
        1
  0
XRECORD
  5
222
102
{ACAD_REACTORS
330
220
102
}
330
220
100
AcDbXrecord
 90
       70
  0
XRECORD
  5
239
102
{ACAD_REACTORS
330
220
102
}
330
220
100
AcDbXrecord
340
0
  0
XRECORD
  5
23F
102
{ACAD_REACTORS
330
220
102
}
330
220
100
AcDbXrecord
 10
0.0
 20
0.0
 30
0.0
  0
XRECORD
  5
23B
102
{ACAD_REACTORS
330
220
102
}
330
220
100
AcDbXrecord
 10
0.0
 20
0.0
 30
0.0
  0
XRECORD
  5
23E
102
{ACAD_REACTORS
330
220
102
}
330
220
100
AcDbXrecord
 10
0.0
 20
0.0
 30
0.0
  0
XRECORD
  5
23C
102
{ACAD_REACTORS
330
220
102
}
330
220
100
AcDbXrecord
 10
0.0
 20
0.0
 30
0.0
  0
XRECORD
  5
23D
102
{ACAD_REACTORS
330
220
102
}
330
220
100
AcDbXrecord
 10
0.0
 20
0.0
 30
0.0
  0
XRECORD
  5
23A
102
{ACAD_REACTORS
330
220
102
}
330
220
100
AcDbXrecord
 10
0.0
 20
0.0
 30
0.0
  0
XRECORD
  5
237
102
{ACAD_REACTORS
330
220
102
}
330
220
100
AcDbXrecord
340
0
  0
XRECORD
  5
238
102
{ACAD_REACTORS
330
220
102
}
330
220
100
AcDbXrecord
 70
     0
  0
XRECORD
  5
22C
102
{ACAD_REACTORS
330
220
102
}
330
220
100
AcDbXrecord
  1
{5E90A419-47A4-496D-B3A7-861B6F7A9A3D}
  0
ENDSEC
  0
EOF
